osu file format v14

[General]
AudioFilename: Kawada Mami - Serment (TV Size).mp3
AudioLeadIn: 1500
PreviewTime: 47937
Countdown: 0
SampleSet: Soft
StackLeniency: 0.7
Mode: 3
LetterboxInBreaks: 0
WidescreenStoryboard: 0

[Editor]
DistanceSpacing: 0.9
BeatDivisor: 4
GridSize: 4
TimelineZoom: 2.600002

[Metadata]
Title:Serment (TV Size)
TitleUnicode:Serment (TV Size)
Artist:Mami Kawada
ArtistUnicode:Mami Kawada
Creator:kagiii
Version:Hard
Source:Shakugan no Shana III (Final)
Tags:Opening 2nd Nakazawa Tomoyuki Ozaki Takeshi
BeatmapID:757808
BeatmapSetID:342891

[Difficulty]
HPDrainRate:8
CircleSize:4
OverallDifficulty:8
ApproachRate:5
SliderMultiplier:1.4
SliderTickRate:1

[Events]
//Background and Video events
0,0,"shana-the-flame-of-hevens-shakugan-no-shana-32261964-1280-720.jpg",0,0
//Break Periods
//Storyboard Layer 0 (Background)
//Storyboard Layer 1 (Fail)
//Storyboard Layer 2 (Pass)
//Storyboard Layer 3 (Foreground)
//Storyboard Sound Samples
5,28055,0,"LR_HiHat Click.wav",30

[TimingPoints]
390,283.018867924528,4,2,1,30,1,0
49069,-100,4,2,1,30,0,1
80767,-100,4,2,1,30,0,0

[HitObjects]
64,192,390,5,8,0:0:0:0:
448,192,390,1,0,0:0:0:0:
64,192,531,1,8,0:0:0:0:
448,192,531,1,0,0:0:0:0:
320,192,673,1,0,0:0:0:0:
64,192,814,1,0,0:0:0:0:
192,192,956,1,0,0:0:0:0:
448,192,1097,1,0,0:0:0:0:
320,192,1239,1,0,0:0:0:0:
192,192,1380,1,0,0:0:0:0:
448,192,1522,1,0,0:0:0:0:
320,192,1663,1,0,0:0:0:0:
64,192,1805,1,0,0:0:0:0:
192,192,1946,1,0,0:0:0:0:
320,192,2088,1,0,0:0:0:0:
64,192,2229,1,0,0:0:0:0:
192,192,2371,1,0,0:0:0:0:
320,192,2512,1,0,0:0:0:0:
64,192,2654,1,8,0:0:0:0:
192,192,2654,1,0,0:0:0:0:
192,192,2795,1,8,0:0:0:0:
64,192,2795,1,0,0:0:0:0:
448,192,2937,1,8,0:0:0:0:
320,192,2937,1,0,0:0:0:0:
192,192,3220,1,8,0:0:0:0:
320,192,3220,1,0,0:0:0:0:
64,192,3503,1,8,0:0:0:0:
448,192,3503,1,0,0:0:0:0:
320,192,3644,128,8,4352:0:0:0:0:
192,192,3644,1,0,0:0:0:0:
64,192,4069,1,0,0:0:0:0:
192,192,4352,128,0,4918:0:0:0:0:
448,192,4352,1,8,0:0:0:0:
64,192,4918,1,8,0:0:0:0:
448,192,4918,1,0,0:0:0:0:
64,192,5059,1,8,0:0:0:0:
448,192,5059,1,0,0:0:0:0:
320,192,5201,1,0,0:0:0:0:
192,192,5342,1,0,0:0:0:0:
448,192,5484,1,0,0:0:0:0:
320,192,5484,1,0,0:0:0:0:
192,192,5625,1,0,0:0:0:0:
64,192,5767,1,0,0:0:0:0:
448,192,5908,1,0,0:0:0:0:
320,192,6050,1,0,0:0:0:0:
192,192,6191,1,0,0:0:0:0:
64,192,6333,1,0,0:0:0:0:
448,192,6474,1,0,0:0:0:0:
320,192,6616,1,0,0:0:0:0:
192,192,6616,1,0,0:0:0:0:
64,192,6757,1,0,0:0:0:0:
320,192,6899,1,0,0:0:0:0:
192,192,7040,1,0,0:0:0:0:
64,192,7182,1,8,0:0:0:0:
448,192,7182,1,0,0:0:0:0:
64,192,7323,1,8,0:0:0:0:
448,192,7323,1,0,0:0:0:0:
192,192,7465,1,8,0:0:0:0:
320,192,7465,1,0,0:0:0:0:
64,192,7748,1,8,0:0:0:0:
448,192,7748,1,0,0:0:0:0:
320,192,8031,1,8,0:0:0:0:
448,192,8031,1,0,0:0:0:0:
192,192,8173,1,0,0:0:0:0:
64,192,8314,1,0,0:0:0:0:
448,192,8314,128,0,8880:0:0:0:0:
320,192,8456,1,0,0:0:0:0:
192,192,8597,1,0,0:0:0:0:
64,192,8880,128,0,9446:0:0:0:0:
320,192,8880,1,8,0:0:0:0:
192,192,9022,1,0,0:0:0:0:
320,192,9163,1,0,0:0:0:0:
448,192,9305,1,0,0:0:0:0:
192,192,9446,1,0,0:0:0:30:LR_HiHat Click.wav
192,192,9729,1,0,0:0:0:30:LR_HiHat Click.wav
192,192,10012,1,0,0:0:0:30:LR_HiHat Click.wav
192,192,10295,1,0,0:0:0:30:LR_HiHat Click.wav
448,192,10437,1,0,0:0:0:0:
320,192,10507,1,0,0:0:0:0:
192,192,10578,1,8,0:0:0:0:
64,192,10578,1,4,0:0:0:0:
320,192,10861,1,8,0:0:0:0:
448,192,10861,1,0,0:0:0:0:
64,192,11144,1,0,0:0:0:0:
448,192,11286,1,0,0:0:0:0:
192,192,11427,1,8,0:0:0:0:
64,192,11427,1,0,0:0:0:0:
320,192,11569,1,0,0:0:0:0:
320,192,11852,1,0,0:0:0:0:
64,192,11993,1,8,0:0:0:0:
448,192,11993,1,0,0:0:0:0:
192,192,12276,1,0,0:0:0:0:
320,192,12418,1,0,0:0:0:0:
64,192,12559,1,8,0:0:0:0:
192,192,12559,1,0,0:0:0:0:
448,192,12842,1,0,0:0:0:0:
64,192,13125,1,8,0:0:0:0:
320,192,13125,1,0,0:0:0:0:
448,192,13408,1,0,0:0:0:0:
320,192,13550,1,0,0:0:0:0:
448,192,13691,1,8,0:0:0:0:
192,192,13691,1,0,0:0:0:0:
64,192,13833,1,0,0:0:0:0:
320,192,14116,1,0,0:0:0:0:
64,192,14257,1,8,0:0:0:0:
448,192,14257,1,0,0:0:0:0:
448,192,14540,128,0,15106:0:0:0:0:
192,192,14540,1,0,0:0:0:0:
320,192,14682,1,0,0:0:0:0:
192,192,14823,1,8,0:0:0:0:
64,192,14823,1,0,0:0:0:0:
320,192,14965,1,0,0:0:0:0:
64,192,15106,1,4,0:0:0:0:
192,192,15106,128,0,15531:0:0:0:0:
448,192,15389,1,8,0:0:0:0:
64,192,15389,1,0,0:0:0:0:
320,192,15531,128,0,15956:0:0:0:0:
192,192,15814,1,0,0:0:0:0:
64,192,15956,128,0,17371:0:0:0:0:
448,192,15956,1,8,0:0:0:0:
192,192,16097,1,0,0:0:0:0:
320,192,16380,1,0,0:0:0:0:
448,192,16522,1,8,0:0:0:0:
192,192,16522,1,0,0:0:0:0:
320,192,16805,1,0,0:0:0:0:
448,192,16946,1,0,0:0:0:0:
192,192,17088,1,8,0:0:0:0:
320,192,17088,1,0,0:0:0:0:
192,192,17371,128,0,18361:0:0:0:0:
448,192,17371,1,0,0:0:0:0:
64,192,17654,1,8,0:0:0:0:
448,192,17654,1,0,0:0:0:0:
320,192,17937,1,0,0:0:0:0:
448,192,18078,1,0,0:0:0:0:
320,192,18220,1,0,0:0:0:0:
64,192,18220,1,0,0:0:0:0:
448,192,18361,128,0,19069:0:0:0:0:
64,192,18361,1,8,0:0:0:0:
64,192,18644,1,0,0:0:0:0:
320,192,18786,1,8,0:0:0:0:
192,192,18786,1,0,0:0:0:0:
64,192,18927,1,8,0:0:0:0:
320,192,19069,128,0,19635:0:0:0:0:
192,192,19069,1,8,0:0:0:0:
64,192,19210,1,8,0:0:0:0:
448,192,19352,1,8,0:0:0:0:
64,192,19493,1,8,0:0:0:0:
192,192,19635,1,0,0:0:0:0:
192,192,19776,1,0,0:0:0:0:
320,192,19918,1,8,0:0:0:0:
448,192,19918,1,0,0:0:0:0:
192,192,20342,1,8,0:0:0:0:
320,192,20484,1,0,0:0:0:0:
64,192,20484,1,0,0:0:0:0:
448,192,20625,1,0,0:0:0:0:
320,192,20908,1,0,0:0:0:0:
192,192,21050,1,8,0:0:0:0:
64,192,21050,1,0,0:0:0:0:
192,192,21333,1,0,0:0:0:0:
320,192,21474,1,0,0:0:0:0:
448,192,21616,1,8,0:0:0:0:
64,192,21616,1,0,0:0:0:0:
192,192,21757,1,0,0:0:0:0:
64,192,21899,1,0,0:0:0:0:
64,192,22040,1,0,0:0:0:0:
320,192,22182,1,8,0:0:0:0:
448,192,22182,1,0,0:0:0:0:
320,192,22606,1,0,0:0:0:0:
64,192,22748,1,8,0:0:0:0:
448,192,22748,1,0,0:0:0:0:
192,192,22889,1,0,0:0:0:0:
192,192,23173,1,0,0:0:0:0:
64,192,23314,1,8,0:0:0:0:
448,192,23314,1,0,0:0:0:0:
320,192,23456,1,0,0:0:0:0:
192,192,23597,1,0,0:0:0:0:
448,192,23739,1,0,0:0:0:0:
320,192,23880,1,8,0:0:0:0:
64,192,23880,1,0,0:0:0:0:
192,192,24022,1,8,0:0:0:0:
448,192,24163,1,0,0:0:0:0:
448,192,24305,1,0,0:0:0:0:
320,192,24446,1,8,0:0:0:0:
64,192,24446,1,0,0:0:0:0:
320,192,24871,1,0,0:0:0:0:
192,192,25012,1,8,0:0:0:0:
64,192,25012,1,0,0:0:0:0:
448,192,25154,1,0,0:0:0:0:
320,192,25437,1,0,0:0:0:0:
192,192,25578,1,8,0:0:0:0:
64,192,25578,1,0,0:0:0:0:
192,192,25861,1,0,0:0:0:0:
320,192,26003,1,0,0:0:0:0:
448,192,26144,1,8,0:0:0:0:
64,192,26144,1,0,0:0:0:0:
192,192,26286,1,0,0:0:0:0:
64,192,26427,1,0,0:0:0:0:
64,192,26569,1,0,0:0:0:0:
320,192,26710,1,8,0:0:0:0:
448,192,26710,1,0,0:0:0:0:
64,192,26993,1,0,0:0:0:0:
448,192,27135,1,0,0:0:0:0:
192,192,27276,1,8,0:0:0:0:
320,192,27276,1,0,0:0:0:0:
64,192,27418,1,0,0:0:0:0:
320,192,27701,1,0,0:0:0:0:
192,192,27842,1,0,0:0:0:0:
448,192,27842,1,8,0:0:0:0:
320,192,27984,1,0,0:0:0:30:LR_HiHat Click.wav
64,192,28125,1,0,0:0:0:30:LR_HiHat Click.wav
192,192,28267,1,0,0:0:0:0:
320,192,28408,1,4,0:0:0:0:
64,192,28408,1,8,0:0:0:0:
448,192,28550,1,8,0:0:0:0:
64,192,28550,1,0,0:0:0:0:
192,192,28691,1,4,0:0:0:0:
448,192,28691,1,0,0:0:0:0:
320,192,28833,1,0,0:0:0:0:
64,192,28974,1,8,0:0:0:0:
192,192,28974,1,0,0:0:0:0:
192,192,29399,1,0,0:0:0:0:
320,192,29540,1,8,0:0:0:0:
448,192,29540,1,0,0:0:0:0:
64,192,29682,1,0,0:0:0:0:
192,192,29965,1,0,0:0:0:0:
320,192,30106,1,8,0:0:0:0:
448,192,30106,1,0,0:0:0:0:
320,192,30389,1,0,0:0:0:0:
192,192,30531,1,0,0:0:0:0:
64,192,30673,1,8,0:0:0:0:
448,192,30673,1,0,0:0:0:0:
320,192,30814,1,0,0:0:0:0:
448,192,30956,1,0,0:0:0:0:
448,192,31097,1,0,0:0:0:0:
192,192,31239,1,8,0:0:0:0:
64,192,31239,1,0,0:0:0:0:
320,192,31522,1,0,0:0:0:0:
192,192,31663,1,0,0:0:0:0:
64,192,31805,1,8,0:0:0:0:
320,192,31805,1,0,0:0:0:0:
448,192,31946,1,0,0:0:0:0:
320,192,32229,1,0,0:0:0:0:
64,192,32371,1,8,0:0:0:0:
192,192,32371,1,0,0:0:0:0:
320,192,32512,1,0,0:0:0:0:
192,192,32654,1,0,0:0:0:0:
64,192,32795,1,0,0:0:0:0:
320,192,32937,1,8,0:0:0:0:
448,192,32937,1,0,0:0:0:0:
192,192,33078,1,8,0:0:0:0:
64,192,33078,1,0,0:0:0:0:
448,192,33220,1,0,0:0:0:0:
448,192,33361,1,0,0:0:0:0:
320,192,33503,1,8,0:0:0:0:
64,192,33503,1,0,0:0:0:0:
192,192,33927,1,0,0:0:0:0:
320,192,34069,1,8,0:0:0:0:
448,192,34069,1,0,0:0:0:0:
64,192,34210,1,0,0:0:0:0:
192,192,34493,1,0,0:0:0:0:
448,192,34635,1,8,0:0:0:0:
320,192,34635,1,0,0:0:0:0:
320,192,34918,1,0,0:0:0:0:
192,192,35059,1,0,0:0:0:0:
64,192,35201,1,8,0:0:0:0:
448,192,35201,1,0,0:0:0:0:
320,192,35342,1,0,0:0:0:0:
192,192,35484,1,0,0:0:0:0:
320,192,35767,1,4,0:0:0:0:
448,192,35767,1,8,0:0:0:0:
64,192,35908,1,0,0:0:0:0:
192,192,36050,1,0,0:0:0:0:
320,192,36191,1,0,0:0:0:0:
192,192,36333,1,8,0:0:0:0:
64,192,36333,1,4,0:0:0:0:
320,192,36474,1,0,0:0:0:0:
448,192,36616,1,8,0:0:0:0:
64,192,36616,1,4,0:0:0:0:
192,192,36757,1,0,0:0:0:0:
64,192,36899,1,4,0:0:0:0:
448,192,36899,1,8,0:0:0:0:
320,192,37040,1,0,0:0:0:0:
64,192,37182,1,8,0:0:0:0:
448,192,37182,1,0,0:0:0:0:
192,192,37323,1,8,0:0:0:0:
320,192,37323,1,0,0:0:0:0:
448,192,37465,1,8,0:0:0:0:
64,192,37465,1,0,0:0:0:0:
192,192,37606,1,8,0:0:0:0:
320,192,37606,1,0,0:0:0:0:
64,192,37748,1,8,0:0:0:0:
448,192,37748,1,4,0:0:0:0:
192,192,37748,1,0,0:0:0:0:
320,192,37889,1,0,0:0:0:0:
192,192,38031,1,0,0:0:0:0:
64,192,38173,1,0,0:0:0:0:
448,192,38314,1,8,0:0:0:0:
192,192,38314,1,0,0:0:0:0:
320,192,38456,1,0,0:0:0:0:
64,192,38597,1,8,0:0:0:0:
448,192,38597,1,0,0:0:0:0:
192,192,38739,1,8,0:0:0:0:
320,192,38739,1,8,0:0:0:0:
320,192,39022,1,8,0:0:0:0:
448,192,39022,1,0,0:0:0:0:
64,192,39163,1,0,0:0:0:0:
192,192,39305,1,0,0:0:0:0:
448,192,39446,1,8,0:0:0:0:
320,192,39446,1,0,0:0:0:0:
192,192,39588,1,0,0:0:0:0:
64,192,39729,1,0,0:0:0:0:
320,192,39729,1,0,0:0:0:0:
192,192,39871,1,0,0:0:0:0:
448,192,40012,1,0,0:0:0:0:
64,192,40154,1,0,0:0:0:0:
192,192,40154,1,0,0:0:0:0:
320,192,40295,1,0,0:0:0:0:
448,192,40437,1,0,0:0:0:0:
64,192,40578,1,8,0:0:0:0:
192,192,40578,1,0,0:0:0:0:
448,192,40861,1,8,0:0:0:0:
64,192,40861,1,0,0:0:0:0:
192,192,41003,1,8,0:0:0:0:
320,192,41003,1,0,0:0:0:0:
192,192,41144,1,0,0:0:0:0:
448,192,41286,1,0,0:0:0:0:
64,192,41286,1,0,0:0:0:0:
320,192,41427,1,0,0:0:0:0:
192,192,41569,1,0,0:0:0:0:
448,192,41710,1,8,0:0:0:0:
320,192,41710,1,0,0:0:0:0:
64,192,41852,1,8,0:0:0:0:
192,192,41852,1,0,0:0:0:0:
320,192,41993,1,4,0:0:0:0:
448,192,41993,1,8,0:0:0:0:
192,192,42135,1,0,0:0:0:0:
64,192,42276,1,4,0:0:0:0:
448,192,42276,1,8,0:0:0:0:
320,192,42418,1,0,0:0:0:0:
192,192,42559,1,0,0:0:0:0:
64,192,42701,1,0,0:0:0:0:
448,192,42842,1,8,0:0:0:0:
192,192,42842,1,0,0:0:0:0:
320,192,42984,1,0,0:0:0:0:
192,192,43125,1,8,0:0:0:0:
448,192,43125,1,0,0:0:0:0:
320,192,43267,1,8,0:0:0:0:
64,192,43267,1,0,0:0:0:0:
192,192,43550,1,8,0:0:0:0:
320,192,43550,1,0,0:0:0:0:
448,192,43691,1,8,0:0:0:0:
64,192,43691,1,0,0:0:0:0:
192,192,43833,1,0,0:0:0:0:
320,192,43974,1,8,0:0:0:0:
64,192,43974,1,0,0:0:0:0:
320,192,44257,1,0,0:0:0:0:
448,192,44399,1,0,0:0:0:0:
192,192,44540,1,0,0:0:0:0:
320,192,44540,1,0,0:0:0:0:
64,192,44682,1,0,0:0:0:0:
320,192,44823,1,0,0:0:0:0:
192,192,44965,1,0,0:0:0:0:
64,192,45106,1,8,0:0:0:0:
448,192,45106,1,0,0:0:0:0:
320,192,45248,1,0,0:0:0:0:
192,192,45389,1,0,0:0:0:0:
448,192,45389,1,0,0:0:0:0:
64,192,45531,1,0,0:0:0:0:
320,192,45673,1,0,0:0:0:0:
448,192,45814,1,8,0:0:0:0:
320,192,45956,1,0,0:0:0:0:
64,192,45956,1,0,0:0:0:0:
192,192,46097,1,0,0:0:0:0:
448,192,46239,1,8,0:0:0:0:
320,192,46239,1,4,0:0:0:0:
64,192,46380,1,0,0:0:0:0:
192,192,46522,1,0,0:0:0:0:
64,192,46663,1,8,0:0:0:0:
448,192,46663,1,0,0:0:0:0:
320,192,46805,1,0,0:0:0:0:
192,192,46805,1,0,0:0:0:0:
64,192,46946,1,0,0:0:0:0:
448,192,46946,1,0,0:0:0:0:
64,192,47088,128,0,47795:0:0:0:0:
448,192,47088,1,0,0:0:0:0:
192,192,47937,1,0,0:0:0:0:
192,192,48361,1,0,0:0:0:0:
320,192,48503,1,0,0:0:0:0:
448,192,48503,1,0,0:0:0:0:
64,192,48644,1,0,0:0:0:0:
320,192,48786,1,8,0:0:0:0:
448,192,48786,1,0,0:0:0:0:
192,192,48927,1,0,0:0:0:0:
320,192,49069,1,4,0:0:0:0:
448,192,49069,1,0,0:0:0:0:
64,192,49069,1,0,0:0:0:0:
192,192,49352,1,8,0:0:0:0:
320,192,49635,1,0,0:0:0:0:
64,192,49776,1,0,0:0:0:0:
192,192,49918,1,8,0:0:0:0:
448,192,49918,1,0,0:0:0:0:
320,192,50059,1,0,0:0:0:0:
192,192,50342,1,0,0:0:0:0:
448,192,50484,1,8,0:0:0:0:
64,192,50484,1,0,0:0:0:0:
192,192,50767,1,0,0:0:0:0:
320,192,50908,1,0,0:0:0:0:
64,192,51050,1,8,0:0:0:0:
448,192,51050,1,0,0:0:0:0:
192,192,51191,1,0,0:0:0:0:
320,192,51333,1,0,0:0:0:0:
64,192,51333,1,0,0:0:0:0:
448,192,51616,1,8,0:0:0:0:
192,192,51616,1,0,0:0:0:0:
320,192,51899,1,0,0:0:0:0:
64,192,52040,1,0,0:0:0:0:
192,192,52182,1,8,0:0:0:0:
448,192,52182,1,0,0:0:0:0:
320,192,52323,1,0,0:0:0:0:
192,192,52606,1,0,0:0:0:0:
320,192,52748,1,8,0:0:0:0:
448,192,52748,1,0,0:0:0:0:
64,192,53031,1,0,0:0:0:0:
320,192,53173,1,0,0:0:0:0:
192,192,53314,1,8,0:0:0:0:
448,192,53314,1,0,0:0:0:0:
320,192,53456,1,0,0:0:0:0:
64,192,53597,1,4,0:0:0:0:
448,192,53597,1,8,0:0:0:0:
192,192,53880,1,8,0:0:0:0:
320,192,53880,1,0,0:0:0:0:
64,192,54163,1,0,0:0:0:0:
192,192,54305,1,0,0:0:0:0:
320,192,54446,1,8,0:0:0:0:
448,192,54446,1,0,0:0:0:0:
192,192,54588,1,0,0:0:0:0:
64,192,54871,1,0,0:0:0:0:
192,192,55012,1,8,0:0:0:0:
320,192,55012,1,0,0:0:0:0:
448,192,55295,1,0,0:0:0:0:
320,192,55437,1,0,0:0:0:0:
192,192,55578,1,8,0:0:0:0:
64,192,55578,1,0,0:0:0:0:
320,192,55720,1,0,0:0:0:0:
448,192,55861,1,0,0:0:0:0:
64,192,55861,1,0,0:0:0:0:
320,192,56144,1,8,0:0:0:0:
448,192,56144,1,0,0:0:0:0:
64,192,56427,1,0,0:0:0:0:
192,192,56569,1,0,0:0:0:0:
448,192,56710,1,8,0:0:0:0:
320,192,56710,1,0,0:0:0:0:
64,192,56852,1,4,0:0:0:0:
192,192,56852,1,0,0:0:0:0:
320,192,57135,1,0,0:0:0:0:
448,192,57276,1,8,0:0:0:0:
192,192,57276,1,0,0:0:0:0:
448,192,57559,1,0,0:0:0:0:
320,192,57701,1,8,0:0:0:0:
64,192,57701,1,0,0:0:0:0:
192,192,57842,1,4,0:0:0:0:
448,192,57842,1,0,0:0:0:0:
64,192,57984,1,8,0:0:0:0:
448,192,57984,1,0,0:0:0:0:
192,192,58125,1,4,0:0:0:0:
320,192,58125,1,8,0:0:0:0:
448,192,58408,1,8,0:0:0:0:
64,192,58408,1,0,0:0:0:0:
448,192,58691,1,0,0:0:0:0:
320,192,58833,1,0,0:0:0:0:
192,192,58974,1,8,0:0:0:0:
64,192,58974,1,0,0:0:0:0:
320,192,59116,1,0,0:0:0:0:
448,192,59257,1,0,0:0:0:0:
192,192,59399,1,0,0:0:0:0:
320,192,59540,1,8,0:0:0:0:
64,192,59540,1,0,0:0:0:0:
192,192,59823,1,0,0:0:0:0:
320,192,59965,1,0,0:0:0:0:
64,192,60106,1,8,0:0:0:0:
448,192,60106,1,0,0:0:0:0:
192,192,60248,1,0,0:0:0:0:
448,192,60389,1,0,0:0:0:0:
320,192,60389,1,0,0:0:0:0:
64,192,60673,1,8,0:0:0:0:
448,192,60673,1,0,0:0:0:0:
192,192,60956,1,0,0:0:0:0:
320,192,61097,1,0,0:0:0:0:
448,192,61239,1,8,0:0:0:0:
64,192,61239,1,0,0:0:0:0:
192,192,61380,1,4,0:0:0:0:
320,192,61380,1,0,0:0:0:0:
64,192,61663,1,0,0:0:0:0:
448,192,61805,1,0,0:0:0:0:
320,192,61805,1,8,0:0:0:0:
192,192,62088,1,0,0:0:0:0:
320,192,62229,1,8,0:0:0:0:
64,192,62229,1,4,0:0:0:0:
192,192,62371,1,8,0:0:0:0:
448,192,62371,1,0,0:0:0:0:
320,192,62512,1,0,0:0:0:0:
64,192,62654,1,4,0:0:0:0:
192,192,62654,1,0,0:0:0:0:
64,192,62937,1,8,0:0:0:0:
448,192,62937,1,0,0:0:0:0:
320,192,63220,1,0,0:0:0:0:
192,192,63361,1,0,0:0:0:0:
448,192,63503,1,8,0:0:0:0:
320,192,63503,1,0,0:0:0:0:
64,192,63644,1,0,0:0:0:0:
192,192,63927,1,0,0:0:0:0:
64,192,64069,1,8,0:0:0:0:
448,192,64069,1,0,0:0:0:0:
320,192,64352,1,0,0:0:0:0:
192,192,64493,1,0,0:0:0:0:
448,192,64635,1,8,0:0:0:0:
64,192,64635,1,0,0:0:0:0:
320,192,64776,1,0,0:0:0:0:
192,192,64918,1,0,0:0:0:0:
320,192,65201,1,8,0:0:0:0:
448,192,65201,1,4,0:0:0:0:
64,192,65484,1,0,0:0:0:0:
448,192,65484,1,0,0:0:0:0:
192,192,65625,1,8,0:0:0:0:
320,192,65625,1,4,0:0:0:0:
64,192,65767,1,0,0:0:0:0:
448,192,65767,1,0,0:0:0:0:
320,192,65908,1,0,0:0:0:0:
192,192,66050,1,0,0:0:0:0:
320,192,66191,1,8,0:0:0:0:
192,192,66333,1,8,0:0:0:0:
64,192,66333,1,0,0:0:0:0:
448,192,66474,1,8,0:0:0:0:
320,192,66474,1,0,0:0:0:0:
64,192,66616,1,8,0:0:0:0:
192,192,66616,1,0,0:0:0:0:
448,192,66757,1,8,0:0:0:0:
320,192,66757,1,0,0:0:0:0:
64,192,66899,1,8,0:0:0:0:
192,192,66899,1,0,0:0:0:0:
320,192,67040,1,8,0:0:0:0:
448,192,67040,1,0,0:0:0:0:
64,192,67182,1,4,0:0:0:0:
448,192,67182,1,8,0:0:0:0:
192,192,67465,1,8,0:0:0:0:
64,192,67465,1,0,0:0:0:0:
192,192,67748,1,0,0:0:0:0:
320,192,67889,1,0,0:0:0:0:
448,192,68031,1,8,0:0:0:0:
64,192,68031,1,0,0:0:0:0:
320,192,68173,1,0,0:0:0:0:
192,192,68456,1,0,0:0:0:0:
448,192,68597,1,8,0:0:0:0:
64,192,68597,1,0,0:0:0:0:
448,192,68880,1,0,0:0:0:0:
320,192,69022,1,0,0:0:0:0:
192,192,69163,1,8,0:0:0:0:
64,192,69163,1,0,0:0:0:0:
448,192,69446,1,0,0:0:0:0:
192,192,69588,1,0,0:0:0:0:
64,192,69729,1,8,0:0:0:0:
320,192,69729,1,0,0:0:0:0:
192,192,70012,1,0,0:0:0:0:
448,192,70154,1,0,0:0:0:0:
320,192,70295,1,8,0:0:0:0:
192,192,70295,1,0,0:0:0:0:
64,192,70437,1,0,0:0:0:0:
320,192,70578,1,0,0:0:0:0:
192,192,70720,1,0,0:0:0:0:
64,192,70861,1,8,0:0:0:0:
448,192,70861,1,0,0:0:0:0:
192,192,71144,1,0,0:0:0:0:
320,192,71286,1,0,0:0:0:0:
448,192,71427,1,8,0:0:0:0:
192,192,71569,1,8,0:0:0:0:
64,192,71569,1,0,0:0:0:0:
320,192,71710,1,4,0:0:0:0:
448,192,71710,1,0,0:0:0:0:
64,192,71993,1,8,0:0:0:0:
448,192,71993,1,0,0:0:0:0:
320,192,72276,1,0,0:0:0:0:
192,192,72418,1,0,0:0:0:0:
64,192,72559,1,8,0:0:0:0:
448,192,72559,1,0,0:0:0:0:
320,192,72701,1,0,0:0:0:0:
448,192,72984,1,0,0:0:0:0:
192,192,73125,1,8,0:0:0:0:
64,192,73125,1,0,0:0:0:0:
320,192,73408,1,0,0:0:0:0:
192,192,73550,1,0,0:0:0:0:
64,192,73691,1,8,0:0:0:0:
320,192,73691,1,0,0:0:0:0:
192,192,73833,1,8,0:0:0:0:
448,192,73833,1,0,0:0:0:0:
320,192,73974,1,4,0:0:0:0:
64,192,73974,1,8,0:0:0:0:
320,192,74257,1,8,0:0:0:0:
448,192,74257,1,0,0:0:0:0:
192,192,74540,1,0,0:0:0:0:
320,192,74682,1,0,0:0:0:0:
64,192,74823,1,8,0:0:0:0:
192,192,74823,1,0,0:0:0:0:
448,192,74965,1,4,0:0:0:0:
320,192,74965,1,8,0:0:0:0:
64,192,75248,1,0,0:0:0:0:
448,192,75389,1,8,0:0:0:0:
192,192,75389,1,0,0:0:0:0:
320,192,75531,1,0,0:0:0:0:
192,192,75673,1,0,0:0:0:0:
320,192,75814,1,0,0:0:0:0:
448,192,75956,1,4,0:0:0:0:
64,192,75956,1,8,0:0:0:0:
192,192,76097,1,0,0:0:0:0:
320,192,76097,1,0,0:0:0:0:
64,192,76239,1,4,0:0:0:0:
448,192,76239,1,8,0:0:0:0:
320,192,76522,1,8,0:0:0:0:
448,192,76522,1,0,0:0:0:0:
64,192,76805,1,0,0:0:0:0:
192,192,76946,1,0,0:0:0:0:
320,192,77088,1,8,0:0:0:0:
448,192,77088,1,0,0:0:0:0:
192,192,77229,1,0,0:0:0:0:
320,192,77512,1,0,0:0:0:0:
192,192,77654,1,8,0:0:0:0:
64,192,77654,1,0,0:0:0:0:
448,192,77937,1,0,0:0:0:0:
320,192,78078,1,0,0:0:0:0:
192,192,78220,1,8,0:0:0:0:
448,192,78220,1,0,0:0:0:0:
320,192,78361,1,8,0:0:0:0:
64,192,78361,1,0,0:0:0:0:
448,192,78503,1,4,0:0:0:0:
192,192,78503,1,8,0:0:0:0:
320,192,78644,1,0,0:0:0:0:
320,192,78786,1,0,0:0:0:0:
64,192,78927,1,4,0:0:0:0:
192,192,78927,1,8,0:0:0:0:
448,192,79069,1,0,0:0:0:0:
448,192,79210,1,0,0:0:0:0:
320,192,79352,1,8,0:0:0:0:
192,192,79352,1,4,0:0:0:0:
64,192,79493,128,0,79918:0:0:0:0:
448,192,79493,128,0,79918:0:0:0:0:
64,192,80059,1,0,0:0:0:0:
448,192,80130,1,0,0:0:0:0:
192,192,80201,1,8,0:0:0:0:
320,192,80201,1,0,0:0:0:0:
448,192,80342,1,8,0:0:0:0:
64,192,80342,1,4,0:0:0:0:
192,192,80484,1,4,0:0:0:0:
320,192,80484,1,8,0:0:0:0:
64,192,80625,1,8,0:0:0:0:
448,192,80625,1,0,0:0:0:0:
64,192,80767,1,4,0:0:0:0:
192,192,80767,1,0,0:0:0:0:
320,192,80908,1,4,0:0:0:0:
448,192,80908,1,0,0:0:0:0:
192,192,81050,1,0,0:0:0:0:
320,192,81191,1,0,0:0:0:0:
64,192,81333,1,8,0:0:0:0:
448,192,81333,1,0,0:0:0:0:
192,192,81474,1,0,0:0:0:0:
448,192,81616,1,0,0:0:0:0:
320,192,81757,1,0,0:0:0:0:
64,192,81757,1,0,0:0:0:0:
192,192,81899,1,0,0:0:0:0:
448,192,82040,1,0,0:0:0:0:
320,192,82182,1,0,0:0:0:0:
64,192,82182,1,0,0:0:0:0:
448,192,82323,1,0,0:0:0:0:
192,192,82465,128,8,82748:0:0:0:0:
64,192,82465,1,0,0:0:0:0:
320,192,82748,128,0,83031:0:0:0:0:
448,192,82748,1,0,0:0:0:0:
192,192,82889,1,0,0:0:0:0:
64,192,83031,1,0,0:0:0:0:
64,192,83173,1,0,0:0:0:0:
320,192,83314,1,0,0:0:0:0:
192,192,83456,1,0,0:0:0:0:
448,192,83597,1,8,0:0:0:0:
64,192,83597,1,0,0:0:0:0:
320,192,83739,1,0,0:0:0:0:
192,192,83880,1,0,0:0:0:0:
448,192,84022,1,0,0:0:0:0:
64,192,84163,1,0,0:0:0:0:
192,192,84305,1,8,0:0:0:0:
448,192,84305,1,0,0:0:0:0:
320,192,84446,1,0,0:0:0:0:
192,192,84588,1,0,0:0:0:0:
64,192,84588,1,0,0:0:0:0:
320,192,84729,1,8,0:0:0:0:
448,192,84729,128,0,85012:0:0:0:0:
64,192,85012,128,4,85295:0:0:0:0:
192,192,85012,1,0,0:0:0:0:
320,192,85154,1,0,0:0:0:0:
448,192,85295,1,4,0:0:0:0:
448,192,85437,1,0,0:0:0:0:
64,192,85578,1,0,0:0:0:0:
192,192,85720,1,0,0:0:0:0:
64,192,85861,1,8,0:0:0:0:
448,192,85861,1,0,0:0:0:0:
320,192,86003,1,0,0:0:0:0:
64,192,86144,1,0,0:0:0:0:
192,192,86286,1,0,0:0:0:0:
448,192,86427,1,0,0:0:0:0:
64,192,86569,1,8,0:0:0:0:
320,192,86569,1,0,0:0:0:0:
448,192,86710,1,0,0:0:0:0:
192,192,86852,1,0,0:0:0:0:
320,192,86993,128,8,87276:0:0:0:0:
64,192,86993,1,0,0:0:0:0:
192,192,87276,128,0,87559:0:0:0:0:
448,192,87276,1,0,0:0:0:0:
64,192,87418,1,0,0:0:0:0:
320,192,87559,1,0,0:0:0:0:
320,192,87701,1,0,0:0:0:0:
192,192,87842,1,4,0:0:0:0:
448,192,87842,1,0,0:0:0:0:
64,192,87984,1,0,0:0:0:0:
448,192,88125,1,8,0:0:0:0:
320,192,88267,1,0,0:0:0:0:
64,192,88408,1,0,0:0:0:0:
192,192,88550,1,0,0:0:0:0:
320,192,88691,1,0,0:0:0:0:
64,192,88833,1,4,0:0:0:0:
448,192,88833,1,0,0:0:0:0:
192,192,88974,1,4,0:0:0:0:
320,192,88974,1,0,0:0:0:0:
448,192,89116,1,0,0:0:0:0:
64,192,89257,1,8,0:0:0:0:
192,192,89257,1,0,0:0:0:0:
320,192,89399,1,8,0:0:0:0:
448,192,89399,1,0,0:0:0:0:
192,192,89540,1,8,0:0:0:0:
64,192,89540,1,4,0:0:0:0:
320,192,89682,1,8,0:0:0:0:
448,192,89682,1,0,0:0:0:0:
